Taltopia.com - Casting Calls, Contests & Auditions
Login with Facebook

Remove Ads?



Search

Search for:
   
Want your media and profile to show up first in searches?
Click here to become a premium member!



Tags: BG 53

" INDEX 01 19:23:00 TRACK 05 AUDIO TITLE "Fumar" INDEX 01 23:10:00 TRACK 06 AUDIO TITLE "Majuro" INDEX 01 29:17:00 TRACK 07 AUDIO TITLE "Bambou" INDEX 01 35:53:00 TRACK 08 AUDIO TITLE
Tags: Progressive-House Progressive-Trance Electro-Hou

Just a little 53 min DJ set i threw down a few days ago using Virtual DJ on my computer. Enjoy! Let me know what you think, I appreciate feedback
Tags: electro electrohouse trance rave roll dance

53 x 53 Sold at auction Acrylic and Ink on canvas
Tags: childrenstick peoplemodern artabstractpainting

This is Stan Bearpaw. Stan was 53 years old when this portrait was done and he is a full-blooded Cherokee. The great thing about Stan is that he is the “ great, great, great nephew” of the famous
Tags: karchner native american indian cherokee colt

Maddie and her friends find mysterious keys and sp
was sunny; we started off by selling our cupcakes. We made $53. We mailed the $45 to pay for the video and split the rest of the money. Later when we were finished, we all got our shovels to go dig
Tags: Maddie

A poem of lost love
145092.txt Tonight Oct 6, '09 7:53 PMfor Sharon's contacts Today my heart was ripped to piecesand left shattered on the floor.Feeling the pain and sorrowThat was once beautiful and pure. I thought
Tags: Tonight

Noriko Sato's acting resume
; ; : 53 : 115 lbs : Black/Brown : Brown : 16-28 2 136.5 Play FUTURESTATES School Girl Best friend Forever David Kaplan, The Winning Season (2009
Tags: Noriko Sato Resume

one of my favorite sights on highway 53 south of international falls
Tags: travel scenery forest fall colors photography

Photo with fashion photographer
Tags: Rose 2

Birds
Tags: Birds

Version 1- Old 53' International in my Mother in-laws side yard
Tags: truckoldvintageInternationalyardred53'

Version 2- Old 53' International truck in my Mother in-laws side yard. I used the Posterize effect
Tags: truckoldInternationalvintagePosterizedyard

Here is my resume. =)
ASHLEY DANIELS THEATER: TRAINING: SPECIAL SKILLS: DOB: 08/03/87 Height: 53 Weight: 97 lbs Occupation: full-time student Education: B.A. Suffolk University, 2006-2010 OLIVER! Fiddler on the Roof
Tags: Acting

Attached Resume
Gigi Pangelinan HEIGHT: 53 HAIR: Black EYES: Dark Brown DRESS: 3 BUST:32 WAIST: 26 HIPS: 32 SHOE: 7 1/2 Beach Road Beach Road Magazine Front Cover Model Shell
Tags: Resume

hot mohot modeling photos, print modeling, head sh
Tags: hot modeling photos print modeling head shot bo

free-hand ink pen drawing
Tags: ink pen drawing

An old 53' International
Tags: TrucksVintageVintage TrucksArtHeadlights Phot

It might be a 52 or 53 MG...but its the exact car that I learned to drive in. It was so much fun driving that car when I was 16! Life was good
Tags: MG classic car sports car antique fun gorgeo

this book is about 100 ways to stay classy and fab
not attractive, itll make you teeth yellow & make you breath smell horrible. Rule 53: Never make someone a priority if youre only an option. Rule 54: Dont be a tease unless you want to get somewhere
Tags: classy& fabulous