Taltopia.com - Casting Calls, Contests & Auditions
Login with Facebook

Remove Ads?



Search

Search for:
   
Want your media and profile to show up first in searches?
Click here to become a premium member!



Comic, E=mc2
Tags: Comic Cartoon Drawing Caricature Einstein Jaguar Snail

Jaguar
Tags: DRDavedunacn

Mayan methodology
Tags: oil painting

this is watercolor & marker on 16x20" canvas This painting depicts the legend of a hero who went to free the souls of his royal cousins, who were eaten by the demon jaguar
Tags: hispanic art latino art popart cartoon

on sketch paper with water colored pencils
Tags: jaguar stare water color animal

"Talisman" INDEX 01 41:46:00 TRACK 09 AUDIO TITLE "Jaguar" INDEX 01 49:08:00 TRACK 10 AUDIO TITLE "Colombian Soul" INDEX 01 56:05:00 TRACK 11 AUDIO TITLE "Sugar High" INDEX 01 62:04:00 TRACK 12
Tags: Progressive-House Progressive-Trance Electro-Hou

a pastel 9x12 rendering of a jaguar cub from a photograph 1994ish
Tags: pastel animal cat

This is the Amazon series of the natives of the rainforest in their celebration with the totems of their traditions. The Harpy Eagle, Jaguar, and the snakes are part of their animistic religion
Tags: Brazamer art Production

This illustration painting comes from the book by Joyce "The Jaguar Boy". It is part of her painted illustrations of the Amazon forest
Tags: Brazamer Art Production

an illustration of how the magical Jaguar maintains his hidden place during the day under the flowers
Tags: illustration from book "The Jaguar Boy" amazon folk legend

This is one of the flyers for the book The Jaguar Boy with several of the illustrations on the front page
Tags: flyer of the "The Jaguar Boy

An illustration of the beautiful jungles flowers o
Tags: illustration from the "Jaguar Boy

man of mystery, the jaguar
Tags: the jaguar

Proof for Logo Design. Custom Grilles for Jaguar Cars
Tags: Mad Composites construct media designs

Proof for Logo Design. Custom Grilles for Jaguar Cars
Tags: Mad Composites construct media designs

Proof for Logo Design. Custom Grilles for Jaguar Cars
Tags: Mad Composites construct media designs

This is my Autobiography, full of violence, no pro
ON THE RIVER. DENNIS DROVE A NEW JAGUAR AND DAVE A NEW CADILLAC. I NATURALLY DROVE WHATEVER I WANTED FROM THE DEALERSHIP WHERE I WORKED. AT TIMES I EVEN DROVE A ROLLS ROYCE, BUT ONLY ON SPECIAL OCCASIONS
Tags: non fiction autobio

could sit down on the picnic table chairs and continue our conversation together. He offered to drive me up to the spot in his fancy brown Jaguar. I had never really been in a Jaguar before
Tags: Sveti Stefan Montnegro ratko mladic goran hadzic

Me with one of my collector cars (My Jaguar XJ8
Tags: Kathleen in her Jag XJ8

Shot of Kathleen in her new Jaguar
Tags: Sitting in my Jag