Taltopia.com - Casting Calls, Contests & Auditions
Login with Facebook

Remove Ads?



Search

Search for:
   
Want your media and profile to show up first in searches?
Click here to become a premium member!



A short film that I directed, shot, and acted in. It started as a camera test at first, but then I ended up deciding to put it up on the internet. The audio isn't that great though
Tags: tough day team boom boom taylor genovese jacob

Audio sample of Decension live recording featuring Ms. Stacy McMicahel on upright bass. Modern jazz / jazz electronic hybrid song composed by Pete Carney
Tags: stacy mcmichael jazz bass music sample decen

Audio sample of live jazz recording featuring Ms. Stacy McMichael on upright bass. Modern jazz composition by Lost Tribe
Tags: stacy mcmichael sudio jazz bass sample secon

I made this with a friend thirty minutes before sunset because we had nothing better to do. It was supposed to have vaudville piano like a silent film because the audio quality was so bad, but I
Tags: Car Trouble Keys dead hooker silent film

Interview for charity P.roject E.xtreme C.ontribut
Tags: Charity Interview

Audio Here We Go Again, Recorded in 2003 Vocals By Angela-Lynn Thank You For Stopping By Enjoy
Tags: Audio Here We Go Again Angela-Lynn

Shinin Star Audio/Clip- combined with some of my photos to make a video- recorded in 2002/2003, Thank you for stopping by to take a listen enjoy
Tags: shinin star Angela-Lynn

Set on a Dreary Beat, Recorded at age 17, at age 21 this was one of J-Deuce first audio recordings. Intitled Whole Life
Tags: Prophecy Story Life Hip Hop Dreary

This selection is a song written and recorded by T
Tags: Golden Eye James Bond Soundtrack Audio Trish Burke and Glen Allen

, Tracktion 3, my M-Audio KeyRig 49 key midi controller, Garritan Personal Orchestra, and LinPlug's CronoX 3 Synth (Arpeggiator synth sounds
Tags: acoustic guitar solo instrumental newage orig

this is just part of the song (1st verse and chorus). Sorry the audio is so bad! I recorded it with a cell phone
Tags: taylor swft cover

The song Hallelujah from Shrek. Note: The recording instruments are not of highest quality so at times this audio and video are a little staticy
Tags: Singing

This is a song I wrote called "Maybe When We're Older" I hope you like it. You can download the audio straight from this clip at www.myspace.com/mattsevrens Here are the lyrics: Verse 1
Tags: Matt Sevrens Original Song Acoustic Maybe Wh

Another of my Long Rambles into the Sonic Possibilities of my Imagination. It is an audio interpetation about a student, of the Temple of Thought. He reluctantly leaves his Teacher, venturing forth
Tags: original music synths recording sound track

Animation illustrating sound; the facets of one pe
Tags: bubbles personality animation art reverse audio

Tags: sound audio

the sound and audio are bad sorry
Tags: twilight premiere

years-to publish the ultimate audio success library were only the acknowledged masters of that subject were made available to counsel and teach and guide you. Over the weeks and months to follow you
Tags: successsuccess livedonald gordon cartylectures

A cappella version of Peggy lee's Fever
Tags: a cappella fever audio

01 AUDIO TITLE "Nobody Seems to Care" INDEX 01 00:00:00 TRACK 02 AUDIO TITLE "Candy" INDEX 01 07:40:00 TRACK 03 AUDIO TITLE "Murder Weapon" INDEX 01 14:01:00 TRACK 04 AUDIO TITLE "Pura Vida
Tags: Progressive-House Progressive-Trance Electro-Hou