Taltopia.com - Casting Calls, Contests & Auditions
Login with Facebook

Remove Ads?



Search

Search for:
   
Want your media and profile to show up first in searches?
Click here to become a premium member!



a weapon of mass destruction
Tags: Warriors 6th Sun final fantasy fighting Trac

A weapon with the power to end all life
Tags: Warriors 6th Sun fighting sword gun final f

A shot of a old army pistol and ammo.
Tags: weapon gun pistol ammo bullets

and keep steppin. The microphone is my weapon of choice Just a suggestion, get out my way if you ain't wit it While get what I'm gettin For I get hyper than Red Bull, mixed wit epinephrine. Gettin
Tags: Gran Cannon Crimson Red Philly Firehouse


Adrienne holding a Klingon Bat'leth as seen on S
Tags: Anaglyph3DStereoscopicweaponswordbatlethklingonstar_trek

Just a few examples of my work...
Tags: photography art woman women girl sexy edgy comic fantasy action battle weapon beauty beautiful cute pink sweet deadly unique creative

My (bl;onde) teenage daughter weilding a Deadly N
Tags: weaponswordsharpmedievalteenblondedeadlyanaglyph3Sstereoscopic

Original concept art
Tags: drigz abrot knight man male armor metal standing belt weapon black green

01 AUDIO TITLE "Nobody Seems to Care" INDEX 01 00:00:00 TRACK 02 AUDIO TITLE "Candy" INDEX 01 07:40:00 TRACK 03 AUDIO TITLE "Murder Weapon" INDEX 01 14:01:00 TRACK 04 AUDIO TITLE "Pura Vida
Tags: Progressive-House Progressive-Trance Electro-Hou

My first drawing of a character I created named 'E
Tags: Girl Sword Woman Weapon Digital Illustration

Created using Adobe Illustrator and Photoshop
Tags: Girl Nunchaku Nunchakas Nunchuks Nunchukas Woman Weapon Digital Illustration

Created using Adobe Illustrator & Photoshop
Tags: Girl Gun Guns Handgun Handguns Woman Weapon Digital Illustration

Created using Adobe Illustrator & Photoshop
Tags: Girl Girls Sword Swords Woman Women Weapon Digital Illustration

Leathal Weapon movie that takes place at Paramounts Carowinds
Tags: live improv comedy acting stage theater sket

Long story short, feeling I was in danger, I left
Tags: sword night machete weapon stoop mystery cops jason

scupture I forged from steel, granite "egg" in the
Tags: sculpture steel forging weapon spear

Its about a guy named Drevon Mackovich who goes an
my head back to the car to put my weapon back. Well," He said glancing around again. The wind picked up and there were more storm clouds now from what I could see. Light rain startled me and I jumped
Tags: story twilightish stuff

A colored pencil drawing of a woman with a weapon in her mouth thats tied to her arm
Tags: pencil colored drawing blue half nude butt

Grey Town Here’s a classic Memphis track. Combining his love of blues, story telling and his weapon of choice – The Bass, all in one track. Slightly funky, this piece brings Memphis country
Tags: Rock Country blues funk folk rock and roll